<?xml version="1.0" standalone="no"?>
<!DOCTYPE svg PUBLIC "-//W3C//DTD SVG 1.1//EN" "http://www.w3.org/Graphics/SVG/1.1/DTD/svg11.dtd" >
<svg xmlns="http://www.w3.org/2000/svg" xmlns:xlink="http://www.w3.org/1999/xlink" version="1.1">
<metadata></metadata>
<defs>
<font id="clearfacegothicregular" horiz-adv-x="1024" >
<font-face units-per-em="2048" ascent="1638" descent="-410" />
<missing-glyph horiz-adv-x="569" />
<glyph horiz-adv-x="0" />
<glyph horiz-adv-x="682" />
<glyph unicode=" "  horiz-adv-x="569" />
<glyph unicode="&#x09;" horiz-adv-x="569" />
<glyph unicode="&#xa0;" horiz-adv-x="569" />
<glyph unicode="!" horiz-adv-x="567" d="M150 113q0 55 38.5 93t94.5 38q55 0 94 -38t39 -91q0 -57 -39 -96t-92 -39q-57 0 -96 38.5t-39 94.5zM160 1221q0 72 33.5 114.5t91.5 42.5q125 0 125 -155q0 -55 -17 -158q-49 -309 -49 -676h-119q0 367 -49 676q-16 102 -16 156z" />
<glyph unicode="&#x22;" horiz-adv-x="772" d="M80 1366h248l-41 -547h-168zM442 1366h248l-39 -547h-168z" />
<glyph unicode="#" d="M80 465v108h225l27 187h-203l-2 110h221l53 379h121l-53 -379h166l55 379h117l-53 -379h204v-110h-219l-26 -187h207l2 -108h-226l-57 -404h-117l56 404h-168l-56 -404h-121l58 404h-211zM422 569h174l29 195h-176z" />
<glyph unicode="$" d="M72 993q0 150 112 256q106 98 258 113v137h109v-133q180 0 305 -66v-235q-135 147 -305 156v-410q186 -61 276 -139q125 -104 125 -271q0 -158 -121.5 -279.5t-279.5 -121.5v-170h-109v164l-6 2q-184 6 -352 92v260q184 -185 358 -201v449q-371 125 -370 397zM264 1032 q0 -121 178 -180v360q-76 -6 -127 -58t-51 -122zM551 156q86 20 137 76.5t51 129.5q0 133 -188 195v-401z" />
<glyph unicode="%" horiz-adv-x="1327" d="M41 971q0 180 71.5 293.5t186.5 113.5q119 0 191.5 -112.5t72.5 -294.5q0 -180 -71.5 -294t-186.5 -114q-119 0 -191.5 112t-72.5 296zM190 971q0 -43 3 -97q4 -98 16 -139q27 -82 98 -82q92 0 103 156q6 88 6 162q0 213 -39 276q-25 39 -74 39q-100 0 -108 -156 q-5 -73 -5 -159zM344 0q43 88 119 268l323 867q31 76 76 229h121q-57 -106 -113 -254l-329 -881q-50 -131 -68 -229h-129zM762 393q0 180 71.5 295t186.5 115q119 0 191.5 -114t72.5 -296q0 -180 -71.5 -293.5t-186.5 -113.5q-119 0 -191.5 112.5t-72.5 294.5zM911 393 q0 -43 2 -96q4 -98 17 -139q27 -80 96 -80q96 0 104 155q4 74 5 160q0 219 -37 279q-25 39 -74 39q-98 0 -109 -156q-4 -60 -4 -162z" />
<glyph unicode="&#x26;" horiz-adv-x="1245" d="M68 383q0 158 110 287q102 117 262 170q-63 96 -178 381v145h674v-195q-35 6 -107 13q-123 10 -294 10q156 -371 342 -694l2 -6q76 158 114 311l195 -33q-53 -223 -205 -448q68 -109 205 -324h-279q-10 16 -75 129q-168 -164 -357 -164q-174 0 -291.5 121t-117.5 297z M283 418q0 -98 65.5 -171t155.5 -73q115 0 235 119q-76 133 -221 401q-236 -88 -235 -276z" />
<glyph unicode="'" horiz-adv-x="415" d="M80 1366h254l-39 -547h-174z" />
<glyph unicode="(" horiz-adv-x="581" d="M68 559q0 250 100 474t289 386l84 -82q-133 -172 -186.5 -345t-53.5 -433t53.5 -433t186.5 -345l-84 -82q-188 162 -288.5 386t-100.5 474z" />
<glyph unicode=")" horiz-adv-x="581" d="M41 -219q133 172 186.5 346t53.5 432t-53.5 432t-186.5 346l84 82q188 -162 288.5 -386t100.5 -474t-100.5 -474t-288.5 -386z" />
<glyph unicode="*" d="M172 1102l55 125l222 -109v248h129v-248l219 109l55 -125l-242 -94l187 -177l-92 -90l-193 197l-193 -197l-92 90l189 177z" />
<glyph unicode="+" d="M35 657v115h418v402h116v-402h420v-115h-420v-401h-116v401h-418z" />
<glyph unicode="," horiz-adv-x="512" d="M84 -250q82 66 113.5 112t40.5 109q-119 23 -119 125q0 53 38 91t91 38q59 0 101 -49t42 -119q0 -102 -72 -209.5t-176 -162.5z" />
<glyph unicode="-" horiz-adv-x="409" d="M0 397v191h410v-191h-410z" />
<glyph unicode="." horiz-adv-x="512" d="M123 113q0 55 39 93t94 38t94 -38t39 -91q0 -57 -39 -96t-92 -39q-57 0 -96 38.5t-39 94.5z" />
<glyph unicode="/" horiz-adv-x="958" d="M-6 -246q76 133 108 207l543 1204q59 129 72 201h217q-59 -78 -125 -223l-528 -1182q-49 -109 -74 -207h-213z" />
<glyph unicode="0" d="M74 655q0 293 122.5 488.5t309.5 195.5q195 0 319.5 -193.5t124.5 -490.5q0 -295 -125 -488.5t-313 -193.5q-190 0 -314 193.5t-124 488.5zM324 655q0 -537 192 -536q182 0 182 536q0 539 -190 539q-184 0 -184 -539z" />
<glyph unicode="1" d="M219 1104v123l463 108v-1194h217v-141h-668v141h232v963h-244z" />
<glyph unicode="2" d="M82 0v201l340 397q127 147 153 186q86 123 87 217q0 84 -50.5 135.5t-132.5 51.5q-178 0 -317 -246l-37 291q174 109 367 108q188 0 309 -96t121 -248q0 -100 -52.5 -193t-181.5 -222l-381 -381h344q172 0 250 20v-221h-819z" />
<glyph unicode="3" d="M84 45v281q168 -205 328 -205q104 0 171.5 70.5t67.5 179.5q0 236 -252 235q-49 0 -108 -8v186q63 -8 110 -8q231 0 232 223q0 88 -50.5 139.5t-138.5 51.5q-166 0 -311 -168v242q135 74 316 73q190 0 306.5 -93t116.5 -245q0 -195 -221 -303q117 -41 184.5 -128 t67.5 -199q0 -174 -137 -286t-352 -112q-174 0 -330 74z" />
<glyph unicode="4" d="M55 285v180q16 33 21 37l237 405q121 207 193 404h260l-539 -856h351v397l217 350v-747q104 0 188 8v-189q-63 10 -188 11v-70q0 -129 14 -215h-244q12 94 13 285h-523z" />
<glyph unicode="5" d="M100 53v285q145 -215 330 -215q115 0 186.5 78t71.5 200q0 115 -61.5 182.5t-167.5 67.5q-96 0 -199 -88l-119 55l31 693h512q90 0 154 28l-15 -221h-487l-19 -366q100 70 236 69q164 0 272.5 -109.5t108.5 -277.5q0 -205 -141.5 -333t-368.5 -128q-203 0 -324 80z" />
<glyph unicode="6" d="M82 563q0 332 187.5 554t465.5 222q74 0 142 -18v-252q-74 109 -201 109t-220.5 -122t-111.5 -311q117 111 254 111q156 0 256 -115.5t100 -298.5q0 -205 -118.5 -337t-300.5 -132q-203 0 -328 162t-125 428zM330 473q0 -336 202 -336q178 0 179 291q0 248 -172 248 q-146 0 -203 -135q-6 -25 -6 -68z" />
<glyph unicode="7" d="M123 1083v228h776v-115l-278 -831q-43 -129 -58 -181q-31 -102 -41 -184h-307q86 166 172 365l334 770h-135q-283 0 -463 -52z" />
<glyph unicode="8" d="M63 311q0 210 254 355q-102 90 -143 159.5t-41 153.5q0 152 122 256t302 104q143 0 248 -86q113 -92 113 -231q0 -186 -197 -295q242 -152 242 -360q0 -172 -129 -283t-330 -111q-195 0 -318 94.5t-123 243.5zM274 332q0 -86 68 -144.5t168 -58.5q96 0 161.5 54.5 t65.5 133.5q0 78 -62.5 133.5t-230.5 131.5q-170 -117 -170 -250zM340 1032q0 -80 86 -143q78 -45 154 -90q156 113 155 219q0 78 -55 125t-143 47q-82 0 -139.5 -46t-57.5 -112z" />
<glyph unicode="9" d="M70 862q0 201 127 339t311 138q195 0 314.5 -160.5t119.5 -422.5q0 -336 -184.5 -559.5t-462.5 -223.5q-76 0 -127 27v248q121 -115 201 -115q127 0 213 122t100 323q-133 -125 -262 -125q-150 0 -250 117.5t-100 291.5zM311 891q0 -250 178 -250q121 0 195 115 q12 61 12 112q0 145 -52 231.5t-142 86.5q-86 0 -138.5 -81t-52.5 -214z" />
<glyph unicode=":" horiz-adv-x="512" d="M123 113q0 55 39 93t94 38t94 -38t39 -91q0 -57 -39 -96t-92 -39q-57 0 -96 38.5t-39 94.5zM123 846q0 53 39 92t94 39t94 -39t39 -92q0 -55 -39 -95t-92 -40q-57 0 -96 40t-39 95z" />
<glyph unicode=";" horiz-adv-x="512" d="M84 -250q82 66 113.5 112t40.5 109q-119 23 -119 125q0 53 38 91t91 38q59 0 101 -49t42 -119q0 -102 -72 -209.5t-176 -162.5zM121 846q0 53 39 92t94 39t94 -39t39 -92q0 -55 -39 -95t-92 -40q-55 0 -95 40t-40 95z" />
<glyph unicode="&#x3c;" d="M68 592v194l886 441v-230l-643 -309l643 -311v-227z" />
<glyph unicode="=" d="M35 510v111h954v-111h-954zM35 807v111h954v-111h-954z" />
<glyph unicode="&#x3e;" d="M70 150v229l643 309l-641 311l-2 228l886 -441v-196z" />
<glyph unicode="?" horiz-adv-x="671" d="M96 113q0 55 39 93t94 38t94 -38t39 -91q0 -57 -38.5 -96t-92.5 -39q-57 0 -96 38.5t-39 94.5zM117 1153v223q14 0 45 2h43q178 0 288.5 -107.5t110.5 -281.5q0 -252 -248 -381q-37 -18 -48 -32.5t-13 -51.5l-10 -143h-107v389q143 68 197.5 126t54.5 148q0 82 -45 131.5 t-121 49.5q-84 0 -147 -72z" />
<glyph unicode="@" horiz-adv-x="1585" d="M127 664q0 293 205 499.5t495 206.5q258 0 442.5 -169t184.5 -406q0 -201 -135 -369q-143 -174 -334 -174q-131 0 -151 100q-115 -100 -226 -100q-102 0 -166.5 74.5t-64.5 191.5q0 223 135 396t311 173q123 0 185 -94l22 66h180l-198 -561q-35 -98 -35 -129 q0 -35 41 -35q139 0 244 158q96 143 96 296q0 201 -158 344.5t-379 143.5q-248 0 -424 -178t-176 -430q0 -250 173 -426t421 -176q333 0 528 307h103q-84 -188 -256 -296t-383 -108q-274 0 -477 207t-203 488zM541 432q0 -102 94 -102q68 0 133 80q53 61 80 139l106 303 q8 16 9 41q0 117 -99 117q-125 0 -231 -230q-92 -199 -92 -348z" />
<glyph unicode="A" horiz-adv-x="1103" d="M6 0q29 74 70 195l356 1056l-41 115h264l363 -1171q43 -139 59 -177q2 -4 8 -18h-272l-82 319h-397q-23 -80 -45 -157q-25 -94 -31 -162h-252zM389 500h301l-149 524z" />
<glyph unicode="B" horiz-adv-x="1101" d="M131 0q12 90 12 227v742q0 133 -2 223q0 61 -10 174h430q420 0 420 -315q0 -213 -221 -303q123 -35 198.5 -135.5t75.5 -227.5q0 -106 -50 -194.5t-136 -133.5q-109 -57 -316 -57h-401zM383 174h96q299 0 299 227q0 156 -129 207q-78 31 -266 31v-465zM383 823h113 q258 0 258 199q0 192 -268 192h-3h-100v-391z" />
<glyph unicode="C" horiz-adv-x="1021" d="M68 627q0 334 185 553t466 219q104 0 192 -35v-272q-127 133 -260 133q-176 0 -260 -189q-65 -139 -65 -336v-6q0 -250 94 -394t260 -144q66 0 113.5 23t117.5 89l97 -82q-154 -221 -390 -221q-254 0 -409 209q-141 190 -141 453z" />
<glyph unicode="D" horiz-adv-x="1134" d="M131 0q2 14 4 37q8 104 8 315v686q0 111 -2 183q-2 86 -10 145h358q127 0 199 -20q176 -51 277.5 -223.5t101.5 -424.5q0 -698 -592 -698h-344zM383 172h70q195 0 274.5 115.5t79.5 400.5q0 440 -219 498q-37 10 -121 10h-84v-1024z" />
<glyph unicode="E" horiz-adv-x="983" d="M131 0q2 14 4 31q8 135 8 399v502q0 150 -2 239q-2 113 -10 195h787v-201q-63 12 -138 19q-113 8 -397 8v-395h133q154 0 227 18v-219q-88 16 -229 16h-131v-436q106 0 328 2q152 2 229 17v-195h-809z" />
<glyph unicode="F" horiz-adv-x="907" d="M129 0q14 74 14 238v731q0 264 -14 397h752v-197q-37 4 -132.5 10.5t-365.5 6.5v-416q233 0 350 18v-215q-109 18 -256 19h-94v-230q0 -249 14 -362h-268z" />
<glyph unicode="G" horiz-adv-x="1097" d="M68 612q0 309 194 541q205 246 508 246q82 0 178 -23v-301q-74 74 -112 101q-68 45 -140 45q-166 0 -267 -156t-101 -412q0 -209 69 -340q90 -170 281 -170q53 0 86 21v299q0 113 -12 207h264q-12 -100 -12 -207v-385q-141 -113 -353 -113q-256 0 -419.5 181.5 t-163.5 465.5z" />
<glyph unicode="H" horiz-adv-x="1155" d="M131 0q12 115 12 305v752q0 190 -12 309h266q-14 -106 -14 -309v-258h391v258q0 207 -12 309h264q-14 -102 -14 -309v-742q0 -193 14 -315h-264q12 111 12 301v313h-391v-313q0 -195 14 -301h-266z" />
<glyph unicode="I" horiz-adv-x="526" d="M131 0l4 39q8 129 8 373v614q0 113 -2 188q0 51 -10 152h264q0 -12 -4 -27q-8 -104 -8 -313v-616q0 -139 2 -226q2 -106 10 -184h-264z" />
<glyph unicode="J" horiz-adv-x="608" d="M41 0v182q39 -12 86 -12q68 0 90.5 36t22.5 142v729q0 98 -2 162q0 43 -11 127h265q-8 -43 -11 -182q-2 -96 -2 -107v-717q0 -174 -30 -239q-68 -147 -269 -148q-67 0 -139 27z" />
<glyph unicode="K" horiz-adv-x="1107" d="M131 0q12 139 12 274v760q0 240 -12 332h264q-14 -104 -14 -319v-283l154 252q98 164 180 237q121 113 268 113v-211q-6 0 -20 2h-17q-88 0 -164 -90q-33 -39 -108 -166l244 -551q57 -117 169 -350h-286l-279 655l-141 -262q0 -188 6 -321q2 -37 8 -72h-264z" />
<glyph unicode="L" horiz-adv-x="913" d="M131 0q8 66 10 236l2 227l-2 727q-2 111 -10 176h264q-12 -139 -12 -352v-840h137q229 0 365 31v-205h-754z" />
<glyph unicode="M" horiz-adv-x="1370" d="M121 0q10 88 18 358l6 211v463q0 47 -4 182q0 49 -10 152h363l192 -731l168 579q29 96 35 152h352q-14 -111 -14 -334v-735q0 -205 14 -297h-254q0 12 2 31q12 188 12 561v536l-260 -919h-147l-252 919v-550q0 -57 4 -328q2 -88 10 -250h-235z" />
<glyph unicode="N" horiz-adv-x="1146" d="M131 0q6 41 8 106q4 106 4 263v520q0 61 -2 260q-2 119 -10 217h289l381 -803v443q0 195 -6 284q0 20 -7 76h226q-14 -176 -15 -360v-695q0 -176 15 -311h-201l-471 991v-622q0 -154 6 -291q2 -37 6 -78h-223z" />
<glyph unicode="O" horiz-adv-x="1165" d="M70 682q0 262 123 471q145 246 389 246q246 0 393 -244q123 -209 123 -473q0 -262 -123 -469q-143 -248 -387 -248q-248 0 -393 244q-125 207 -125 473zM334 682q0 -203 41 -340q63 -219 215 -219q111 0 177.5 152.5t66.5 406.5q0 201 -41 342q-66 217 -215 217 q-111 0 -177.5 -152.5t-66.5 -406.5z" />
<glyph unicode="P" horiz-adv-x="1048" d="M131 0q12 109 12 252v821q0 180 -12 293h383q494 0 494 -391q0 -213 -148 -320q-129 -94 -350 -94h-127v-311q0 -127 12 -250h-264zM383 727q176 0 254 33q121 53 121 205q0 239 -275 239h-2q-37 0 -98 -6v-471z" />
<glyph unicode="Q" horiz-adv-x="1167" d="M70 682q0 262 123 471q145 246 389 246q246 0 393 -244q123 -209 123 -473q0 -180 -61.5 -341t-168.5 -261q80 -121 232 -121l-29 -207q-12 -2 -29 -2q-104 0 -202.5 62.5t-155.5 164.5q-55 -12 -98 -12q-246 0 -393 246q-123 207 -123 471zM334 682q0 -203 41 -340 q63 -219 215 -219q111 0 177.5 152.5t66.5 406.5q0 201 -41 342q-66 217 -215 217q-111 0 -177.5 -152.5t-66.5 -406.5z" />
<glyph unicode="R" horiz-adv-x="1073" d="M129 0q12 100 12 276v799q0 190 -12 291h455q195 0 304 -95t109 -265q0 -242 -264 -355l279 -612q10 -23 20 -39h-299q-12 57 -43 137q-29 66 -55 133l-131 340h-123v-340q0 -172 12 -270h-264zM381 788h63q49 -2 66 -2h4q236 0 236 211q0 209 -246 209h-123v-418z" />
<glyph unicode="S" horiz-adv-x="950" d="M66 57v293q145 -203 356 -203q106 0 171.5 56.5t65.5 146.5q0 113 -147 203l-274 152q-147 106 -148 264q0 182 142.5 304t355.5 122q113 0 200 -41v-248q-115 113 -270 113q-90 0 -145.5 -44.5t-55.5 -117.5q0 -98 148 -176q244 -127 274 -154q147 -119 148 -317 q0 -197 -136.5 -318t-359.5 -121q-208 0 -325 86z" />
<glyph unicode="T" horiz-adv-x="925" d="M20 1192v174h885v-174q-119 20 -321 20v-798q0 -240 6 -342q2 -21 8 -72h-266q8 63 10 250l2 164v798q-203 0 -324 -20z" />
<glyph unicode="U" horiz-adv-x="1095" d="M117 1364h262q-10 -143 -10 -381v-547q0 -150 26 -209q41 -96 174 -96q127 0 176 96q35 70 35 211v547q0 43 -4 213q0 57 -10 166h223q-2 -12 -2 -25q-4 -49 -8 -213q-2 -82 -2 -141v-549q0 -199 -47 -284q-100 -186 -398 -187q-276 0 -364 185q-39 80 -39 286v549 q0 131 -2 211q-2 98 -10 168z" />
<glyph unicode="V" horiz-adv-x="970" d="M4 1366h277q8 -82 73 -346l158 -639l152 543q51 184 59 219q31 127 37 223h217l-6 -20l-137 -451l-224 -784l37 -111h-250l-274 969q-37 133 -119 397z" />
<glyph unicode="W" horiz-adv-x="1454" d="M12 1366h256q6 -66 35 -217l148 -764l186 752l-41 192l227 60l199 -1004l152 659q47 207 59 322h211q-31 -100 -92 -346l-256 -1020h-195l-176 860l-203 -860h-192l-207 930q-57 262 -111 436z" />
<glyph unicode="X" horiz-adv-x="972" d="M-8 0q41 61 170 305l205 389l-207 402l-148 270h289q18 -59 86 -201l111 -233l100 198q74 147 98 236h242q-86 -141 -141 -248l-199 -389l215 -424l154 -280l12 -25h-283q-4 12 -8 27q-35 92 -123 266l-100 199l-98 -199q-90 -182 -117 -264q-2 -6 -10 -29h-248z" />
<glyph unicode="Y" horiz-adv-x="954" d="M-20 1366h278q10 -39 68 -174l102 -244l74 -147l63 147l111 246q33 72 67 172h232l-12 -25l-99 -186q-78 -147 -121 -240l-147 -315v-371q0 -145 12 -229h-264q12 78 12 229v351l-153 335l-117 242q-31 72 -106 209z" />
<glyph unicode="Z" horiz-adv-x="927" d="M41 0v121l549 1069h-195q-213 0 -295 -12v188h787v-106l-563 -1084h235q201 0 326 17v-193h-844z" />
<glyph unicode="[" horiz-adv-x="581" d="M145 -18v1157q0 106 52.5 166.5t144.5 60.5h107v-156q-66 0 -81.5 -9t-15.5 -54v-1165q0 -74 54 -74h43v-154h-107q-92 0 -144.5 60.5t-52.5 167.5z" />
<glyph unicode="\" horiz-adv-x="958" d="M25 1366h217q16 -72 73 -201l541 -1204q33 -72 109 -207h-213q-25 98 -74 207l-528 1182q-66 145 -125 223z" />
<glyph unicode="]" horiz-adv-x="581" d="M133 -92h43q31 0 43 12q10 14 10 53v1166q0 39 -8 53q-10 18 -45 18h-43v156h109q90 0 142 -60.5t52 -166.5v-1157q0 -106 -52 -167t-142 -61h-109v154z" />
<glyph unicode="^" d="M49 743l334 629h258l336 -629h-209l-256 471l-254 -471h-209z" />
<glyph unicode="_" d="M0 -133h1024v-141h-1024v141z" />
<glyph unicode="`" d="M252 1411h213l172 -291h-141z" />
<glyph unicode="a" horiz-adv-x="860" d="M47 256q0 172 164 287q123 84 321 125q-10 176 -184 176q-90 0 -201 -78v225q63 12 138 13q166 0 286 -66q143 -78 166 -227q6 -41 6 -166v-199q0 -225 41 -346h-209q-27 29 -43 84q-111 -104 -223 -104q-113 0 -187.5 79.5t-74.5 196.5zM272 287q0 -61 35 -100.5 t88 -39.5q72 0 137 62v297q-121 -10 -190.5 -69.5t-69.5 -149.5z" />
<glyph unicode="b" horiz-adv-x="917" d="M94 25q23 172 23 428v610q0 180 -13 301h224v-434q107 69 199 69h3q150 0 238 -119.5t88 -326.5q0 -213 -88 -375q-108 -198 -301 -198h-2q-111 0 -211 86l-84 -89zM328 207q31 -59 110 -60q92 0 143.5 92.5t51.5 260.5q0 327 -194 327h-1q-53 0 -110 -36v-584z" />
<glyph unicode="c" horiz-adv-x="763" d="M61 428q0 236 168 406t400 170q53 0 102 -11l-22 -248q-72 92 -168 93q-113 0 -182.5 -104.5t-69.5 -270.5q0 -127 59 -223q70 -115 191 -115q73 0 155 70l56 -113q-119 -111 -279 -111q-178 0 -294 129t-116 328z" />
<glyph unicode="d" horiz-adv-x="921" d="M61 399q0 215 115 392q128 200 332 200h2q41 0 84 -16v133q0 125 -8 231q0 6 -2 27h221v-1049v-14q0 -177 24 -303h-204q-16 35 -31 100q-97 -120 -225 -120h-2q-129 0 -217.5 120.5t-88.5 298.5zM287 475q0 -117 32 -196q43 -113 142 -113q70 0 133 70v602 q-35 14 -64 14q-106 0 -174.5 -106.5t-68.5 -270.5z" />
<glyph unicode="e" horiz-adv-x="858" d="M61 446q0 225 124 388t294 163q143 0 234.5 -119.5t91.5 -308.5q0 -31 -4 -51l-500 -151q39 -221 219 -222q97 0 199 86l72 -98q-137 -162 -322 -162q-176 0 -292 135.5t-116 339.5zM283 537l184 51q76 20 99.5 40.5t23.5 65.5q0 70 -32 115t-83 45q-78 0 -131 -89 t-61 -228z" />
<glyph unicode="f" horiz-adv-x="546" d="M6 815v154h137q0 160 88 276q98 129 254 129q10 0 64 -8v-162q-41 20 -74 21q-119 0 -119 -189v-67h181v-154h-181v-442q0 -27 2 -211q1 -58 9 -162h-244q20 166 20 373v442h-137z" />
<glyph unicode="g" horiz-adv-x="919" d="M61 410q0 238 122 408.5t292 170.5q102 0 203 -92l96 94l55 -47q-32 -159 -32 -335v-11v-315q0 -45 3 -134.5t3 -134.5q0 -211 -98.5 -303t-313.5 -92q-144 0 -291 33l52 231q103 -114 253 -114h3q115 0 153 81q25 53 25 187q-109 -59 -187 -60q-150 0 -244 121t-94 312z M291 479q0 -336 198 -336q46 0 97 31v578q-29 88 -107 88q-90 0 -139 -95.5t-49 -265.5z" />
<glyph unicode="h" horiz-adv-x="917" d="M98 0q16 88 17 270v768q0 219 -17 328h230v-457q96 80 204 80q162 0 226 -131q43 -92 43 -272v-238q0 -86 2 -207q2 -92 10 -141h-238q14 133 15 348v250q0 104 -23 152q-33 71 -124 71h-3q-63 0 -112 -41v-592q0 -92 10 -188h-240z" />
<glyph unicode="i" horiz-adv-x="456" d="M104 1217q0 66 36 110.5t89 44.5q51 0 85 -41t34 -102q0 -68 -33.5 -111t-87.5 -43q-53 0 -88 40.5t-35 101.5zM111 0q6 39 8 96q4 225 4 240v233l-4 226q0 66 -8 174h233q-2 -8 -2 -25q-6 -70 -6 -156l-2 -438l2 -117q2 -88 8 -233h-233z" />
<glyph unicode="j" horiz-adv-x="456" d="M-25 -188q100 2 124 31.5t24 156.5v707q0 156 -17 264h228v-971q0 -358 -293 -358q-17 0 -66 4v166zM106 1223q0 68 35 108.5t90 40.5t90 -42t35 -107q0 -63 -35.5 -105.5t-89.5 -42.5q-55 0 -90 41t-35 107z" />
<glyph unicode="k" horiz-adv-x="905" d="M104 0q12 102 13 311v701q0 238 -13 354h224v-791l131 177q96 129 164.5 180t148.5 51q18 0 33 -2v-190q-80 -2 -129 -31t-101 -101l211 -460q31 -68 99 -199h-271q-4 12 -12 27l-49 137l-125 291l-100 -148v-108q0 -59 2 -107q2 -29 8 -92h-234z" />
<glyph unicode="l" horiz-adv-x="444" d="M106 0q2 14 5 31q6 158 6 309v694q0 188 -6 295q0 2 -5 37h234q-2 -14 -4 -31q-6 -154 -6 -301v-692q0 -115 2 -188q2 -52 8 -154h-234z" />
<glyph unicode="m" horiz-adv-x="1380" d="M104 969h195q16 -47 23 -113q109 133 237 133q141 0 211 -147q133 147 252 147q244 0 244 -364v-365q0 -178 10 -260h-238q14 129 15 248v375q0 98 -11 127q-20 53 -81 53q-78 0 -160 -98v-445q0 -160 10 -260h-238q6 23 7 29q8 72 8 223v371q0 102 -10 129 q-23 57 -82 57q-86 0 -160 -104v-445q0 -127 8 -233q0 -7 2 -27h-235q12 258 12 260v348q0 242 -19 361z" />
<glyph unicode="n" horiz-adv-x="925" d="M100 969h197q20 -45 25 -107q111 127 245 127q68 0 127.5 -35.5t87 -95t27.5 -215.5v-344q0 -96 2 -164q2 -43 8 -135h-233q12 129 12 305v320q0 182 -113 182q-102 0 -149 -109v-399q0 -197 10 -299h-233q2 14 4 31q6 96 6 262v371q0 203 -23 305z" />
<glyph unicode="o" horiz-adv-x="927" d="M61 485q0 213 118 362.5t286 149.5q164 0 282.5 -150.5t118.5 -357.5q0 -213 -117.5 -364.5t-283.5 -151.5q-168 0 -286 149.5t-118 362.5zM301 485q0 -366 163 -366h1q162 0 162 366q0 367 -162 367q-164 0 -164 -367z" />
<glyph unicode="p" horiz-adv-x="927" d="M104 969h201q10 -29 19 -84q121 104 235 104q137 0 222 -116.5t85 -307.5q0 -227 -116 -395q-133 -190 -349 -190q-33 0 -67 8q0 -238 10 -357h-231q10 104 10 279v807q0 160 -19 252zM334 145q29 -16 61 -16q117 0 184.5 103.5t67.5 283.5q0 139 -47 217t-129 78 q-66 0 -137 -68v-598z" />
<glyph unicode="q" horiz-adv-x="927" d="M61 410q0 211 95 378q113 203 307 203q131 0 209 -88l90 94l78 -30q-35 -86 -35 -285v-696q0 -240 14 -340h-237q4 37 8 157q2 170 2 256q-114 -79 -211 -79h-2q-143 0 -230.5 117.5t-87.5 312.5zM287 473q0 -315 186 -315q53 0 119 45v575q-35 59 -109 60 q-90 0 -143 -98.5t-53 -266.5z" />
<glyph unicode="r" horiz-adv-x="657" d="M80 969h213q23 -88 26 -156q104 164 267 164q27 0 49 -4v-197q-39 8 -68 8q-125 0 -184 -112q-47 -88 -47 -226v-223q0 -133 10 -223h-233q10 88 10 225v320q0 276 -43 424z" />
<glyph unicode="s" horiz-adv-x="733" d="M53 33v276q141 -186 297 -186q61 0 99 32.5t38 84.5q0 74 -108 135l-205 110q-108 79 -108 197q0 143 126.5 233.5t323.5 90.5q47 0 84 -5l14 -208q-106 47 -202 47q-141 0 -142 -95q0 -55 109 -110q170 -86 205 -113q108 -85 108 -213q0 -143 -109.5 -239.5 t-271.5 -96.5q-133 1 -258 60z" />
<glyph unicode="t" horiz-adv-x="561" d="M4 815v154h135v102q0 109 -12 195h233q-10 -74 -10 -195v-102h189v-154h-189v-530q0 -88 22.5 -120t86.5 -32q37 0 80 6v-139q-88 -23 -156 -23q-158 0 -207 80q-37 59 -37 228v530h-135z" />
<glyph unicode="u" horiz-adv-x="925" d="M106 969h234q-12 -129 -12 -305v-320q0 -180 112 -180q102 0 152 106v400q0 176 -12 299h233q-2 -14 -2 -31q-8 -123 -8 -262v-371q0 -186 22 -305h-196q-20 45 -25 106q-110 -126 -242 -126h-2q-70 0 -128 35.5t-85 93.5q-30 64 -30 210v9v342q0 96 -2 164q0 45 -9 135z " />
<glyph unicode="v" horiz-adv-x="761" d="M-8 969h231q78 -385 183 -688q123 346 143 688h192q-34 -353 -272 -969h-176q-72 143 -174 475q-100 326 -127 494z" />
<glyph unicode="w" horiz-adv-x="1169" d="M20 969h236q10 -166 117 -650q43 209 139 625l6 25h174q51 -350 144 -650q109 360 114 650h199q-20 -207 -94 -496q-80 -311 -164 -473h-158q-31 98 -82 301l-59 299q-2 -10 -8 -22l-64 -271q-39 -162 -92 -307h-158q-76 190 -149 479q-72 279 -101 490z" />
<glyph unicode="x" horiz-adv-x="784" d="M-20 0l18 27l102 182l174 280l-157 269l-101 184q-4 8 -16 27h250q49 -104 149 -283q106 184 148 283h215q-6 -10 -12 -23l-105 -188l-141 -246l284 -485q6 -6 17 -27h-258l-172 313q-45 -76 -90 -153q-51 -90 -78 -160h-227z" />
<glyph unicode="y" horiz-adv-x="776" d="M-8 -135q66 -49 112 -49q59 0 114.5 52t86.5 138q-6 20 -14 41l-135 381q-115 326 -164 543h237l7 -21q41 -172 178 -641l90 328q49 193 53 334h199q-33 -227 -166 -631q-147 -449 -256 -571.5t-279 -122.5q-34 0 -63 2v217z" />
<glyph unicode="z" horiz-adv-x="745" d="M39 0v127l412 690h-101q-184 0 -270 -22v174h627v-123l-412 -696q203 0 332 10q25 2 80 10v-170h-668z" />
<glyph unicode="{" d="M240 414v180q117 31 116 180v332q0 186 109 244q72 39 272 39q25 0 43 -3v-206q-119 -2 -157.5 -37t-38.5 -139v-267q0 -96 -24.5 -148t-90.5 -89q115 -68 115 -244v-262q0 -111 39 -146.5t157 -35.5v-199h-49q-203 0 -274 45q-100 61 -101 256v309q0 160 -116 191z" />
<glyph unicode="|" d="M395 -342v1706h232v-1706h-232z" />
<glyph unicode="}" d="M244 -178q121 2 158.5 35.5t37.5 140.5v264q0 98 24.5 149.5t90.5 90.5q-63 37 -89 90t-26 151v265q0 111 -37.5 145.5t-158.5 36.5v196q33 2 47 3q174 -8 201 -13q90 -14 129 -71q47 -68 47 -220v-307q0 -90 26.5 -133t89.5 -59v-180q-117 -29 -116 -181v-331 q0 -182 -107 -242q-74 -39 -274 -39h-43v209z" />
<glyph unicode="~" horiz-adv-x="1366" d="M193 1255q109 254 290 254q76 0 211 -67.5t197 -67.5q94 0 170 139l117 -94q-106 -250 -312 -250q-72 0 -196.5 67t-196.5 67q-88 -1 -164 -142z" />
<glyph unicode="&#xa2;" d="M170 606q0 174 104.5 317.5t272.5 200.5v148h102v-125q25 2 64 2q47 0 82 -6v-246q-63 74 -146 82v-686q92 0 174 78l66 -111q-99 -100 -240 -123v-160h-102v158q-166 23 -271.5 154t-105.5 317zM393 651q0 -238 154 -325v641q-154 -63 -154 -316z" />
<glyph unicode="&#xa3;" d="M141 0v150q162 156 162 303q0 33 -8 73h-154v144h109q-4 18 -49 125q-37 84 -37 174q0 172 126 284.5t320 112.5q147 0 287 -53v-234q-133 106 -293 107q-94 0 -150.5 -44t-56.5 -118q0 -45 54 -166q57 -133 65 -188h299v-144h-283q0 -100 -36 -194q-41 -104 -113 -162 h315q154 0 246 18v-188h-803z" />
<glyph unicode="&#xa5;" d="M49 1337h260q4 -10 8 -24q10 -31 56 -144l94 -235l70 -143l59 143l102 237q33 74 64 166h215q-78 -158 -234 -475h189v-108h-238l-71 -158v-70h288v-108h-288v-197q0 -152 10 -221h-242q12 74 12 221v197h-286v108h286v49l-79 179h-228v108h178l-16 39l-108 236 q-33 74 -89 182q-2 4 -12 18z" />
<glyph unicode="&#xa8;" d="M221 1266q0 57 35 96t84 39t84 -39t35 -96q0 -55 -35 -94t-84 -39t-84 38.5t-35 94.5zM561 1266q0 57 35 96t86 39q49 0 84 -39t35 -96q0 -55 -35 -94t-84 -39q-51 0 -86 38.5t-35 94.5z" />
<glyph unicode="&#xa9;" horiz-adv-x="1589" d="M88 682q0 293 208 501t501 208q291 0 497.5 -208t206.5 -501t-207 -501t-499 -208q-293 0 -500 208t-207 501zM201 682q0 -250 174 -427t420 -177t420 177t174 427t-174 427t-418 177q-248 0 -422 -177t-174 -427zM410 686q0 184 109.5 300t285.5 116q141 0 241.5 -81 t110.5 -206h-110q-37 164 -242 164q-115 0 -184.5 -80t-69.5 -215q0 -133 68.5 -213t183.5 -80q106 0 172.5 56.5t81.5 158.5h110q-12 -154 -112.5 -245t-255.5 -91q-174 0 -281.5 115t-107.5 301z" />
<glyph unicode="&#xab;" horiz-adv-x="708" d="M82 412v159l244 299v-198l-136 -178l136 -179v-194zM356 412v159l244 299v-198l-137 -178l137 -179v-194z" />
<glyph unicode="&#xad;" horiz-adv-x="409" d="M0 397v191h410v-191h-410z" />
<glyph unicode="&#xae;" horiz-adv-x="1589" d="M88 682q0 293 207 501t502 208q291 0 497.5 -208t206.5 -501t-207 -501t-499 -208q-293 0 -500 208t-207 501zM201 682q0 -250 174 -427t420 -177t420 177t174 427t-174 427t-418 177q-248 0 -422 -177t-174 -427zM494 283v798h337q285 0 285 -221q0 -139 -139 -194 q84 -31 108 -101q12 -35 15 -139q2 -94 26 -143h-135q-14 25 -18 94q-10 152 -23 178q-33 66 -168 66h-147v-338h-141zM635 707h158q184 0 184 143q0 139 -170 139h-172v-282z" />
<glyph unicode="&#xb4;" d="M387 1120l172 291h213l-244 -291h-141z" />
<glyph unicode="&#xb8;" d="M344 -354l35 67q74 -49 133 -49q92 0 92 76q0 63 -74 63q-18 0 -41 -14l-67 33l141 264h94l-94 -192q88 -2 144.5 -46.5t56.5 -113.5q0 -74 -53.5 -124t-130.5 -50q-127 0 -236 86z" />
<glyph unicode="&#xbb;" horiz-adv-x="708" d="M109 121v194l137 179l-137 178v198l243 -299v-159zM383 121v194l135 179l-135 178v198l244 -299v-159z" />
<glyph unicode="&#xc2;" horiz-adv-x="1103" d="M6 0q29 74 70 195l356 1056l-41 115h264l363 -1171q43 -139 59 -177q2 -4 8 -18h-272l-82 319h-397q-23 -80 -45 -157q-25 -94 -31 -162h-252zM287 1518l180 292h190l172 -292h-163l-111 180l-111 -180h-157zM389 500h301l-149 524z" />
<glyph unicode="&#xc7;" horiz-adv-x="1021" d="M68 625q0 311 170 532q184 242 485 242q90 0 190 -29v-278q-125 131 -260 131q-170 0 -258 -183q-68 -143 -67 -333q0 -211 73 -359q94 -193 283 -192q63 0 109.5 22.5t119.5 89.5l95 -82q-154 -221 -412 -221l-39 -78q88 0 144.5 -45t56.5 -114q0 -76 -53.5 -126.5 t-131.5 -50.5q-129 0 -235 89l35 65q78 -49 133 -49q92 0 92 78q0 63 -70 63q-16 0 -39 -14l-71 33l80 164q-199 49 -314.5 224t-115.5 421z" />
<glyph unicode="&#xce;" horiz-adv-x="526" d="M125 1518l180 292h191l172 -292h-164l-111 180l-110 -180h-158zM131 0l4 39q8 129 8 373v614q0 113 -2 188q0 51 -10 152h264q0 -12 -4 -27q-8 -104 -8 -313v-616q0 -139 2 -226q2 -106 10 -184h-264z" />
<glyph unicode="&#xd6;" horiz-adv-x="1165" d="M70 682q0 262 123 471q145 246 389 246q246 0 393 -244q123 -209 123 -473q0 -262 -123 -469q-143 -248 -387 -248q-248 0 -393 244q-125 207 -125 473zM303 1669q0 57 35 96t84 39t84 -39t35 -96q0 -55 -35 -94t-84 -39t-84 39t-35 94zM334 682q0 -203 41 -340 q63 -219 215 -219q111 0 177.5 152.5t66.5 406.5q0 201 -41 342q-66 217 -215 217q-111 0 -177.5 -152.5t-66.5 -406.5zM643 1669q0 57 35 96t86 39q49 0 84 -39t35 -96q0 -55 -35 -94t-84 -39q-51 0 -86 39t-35 94z" />
<glyph unicode="&#xdb;" horiz-adv-x="1095" d="M117 1364h262q-10 -143 -10 -381v-547q0 -150 26 -209q41 -96 174 -96q127 0 176 96q35 70 35 211v547q0 43 -4 213q0 57 -10 166h223q-2 -12 -2 -25q-4 -49 -8 -213q-2 -82 -2 -141v-549q0 -199 -47 -284q-100 -186 -398 -187q-276 0 -364 185q-39 80 -39 286v549 q0 131 -2 211q-2 98 -10 168zM393 1518l180 292h191l172 -292h-164l-110 180l-111 -180h-158z" />
<glyph unicode="&#xdc;" horiz-adv-x="1095" d="M117 1364h262q-10 -143 -10 -381v-547q0 -150 26 -209q41 -96 174 -96q127 0 176 96q35 70 35 211v547q0 43 -4 213q0 57 -10 166h223q-2 -12 -2 -25q-4 -49 -8 -213q-2 -82 -2 -141v-549q0 -199 -47 -284q-100 -186 -398 -187q-276 0 -364 185q-39 80 -39 286v549 q0 131 -2 211q-2 98 -10 168zM283 1669q0 57 34.5 96t83.5 39t84 -39t35 -96q0 -55 -34.5 -94t-84.5 -39q-49 0 -83.5 39t-34.5 94zM623 1669q0 57 34.5 96t85.5 39q49 0 84 -39t35 -96q0 -55 -34.5 -94t-84.5 -39q-51 0 -85.5 39t-34.5 94z" />
<glyph unicode="&#xe2;" horiz-adv-x="860" d="M47 256q0 172 164 287q123 84 321 125q-10 176 -184 176q-90 0 -201 -78v225q63 12 138 13q166 0 286 -66q143 -78 166 -227q6 -41 6 -166v-199q0 -225 41 -346h-209q-27 29 -43 84q-111 -104 -223 -104q-113 0 -187.5 79.5t-74.5 196.5zM205 1120l180 293h190l173 -293 h-164l-111 180l-111 -180h-157zM272 287q0 -61 35 -100.5t88 -39.5q72 0 137 62v297q-121 -10 -190.5 -69.5t-69.5 -149.5z" />
<glyph unicode="&#xe7;" horiz-adv-x="763" d="M61 428q0 236 168 406t400 170q51 0 102 -11l-22 -248q-72 92 -168 93q-113 0 -182.5 -104.5t-69.5 -270.5q0 -127 59 -223q70 -113 191 -113q74 0 155 68l56 -111q-119 -111 -297 -111l-39 -79q78 0 129 -41t51 -105q0 -68 -48 -114t-118 -46q-115 0 -213 80l33 60 q68 -45 119 -45q84 0 84 71q0 57 -64 58q-14 0 -37 -15l-63 31l78 158q-137 33 -220.5 155.5t-83.5 286.5z" />
<glyph unicode="&#xee;" horiz-adv-x="456" d="M68 1120l180 293h190l172 -293h-164l-110 180l-111 -180h-157zM111 0q2 8 3 20.5t3 75.5q0 18 2 54l2 186l-2 459q-2 125 -8 174h233q0 -10 -4 -25q-2 -37 -4 -156l-2 -555q0 -137 10 -233h-233z" />
<glyph unicode="&#xf6;" horiz-adv-x="927" d="M61 485q0 213 118 362.5t286 149.5q164 0 282.5 -150.5t118.5 -357.5q0 -213 -117.5 -364.5t-283.5 -151.5q-168 0 -286 149.5t-118 362.5zM174 1268q0 57 35 96t84 39t84 -39t35 -96q0 -55 -35 -94t-84 -39t-84 38.5t-35 94.5zM301 485q0 -367 164 -366q162 0 162 366 q0 367 -162 367q-164 0 -164 -367zM514 1268q0 57 35 96t86 39q49 0 84 -39t35 -96q0 -55 -35 -94t-84 -39q-51 0 -86 38.5t-35 94.5z" />
<glyph unicode="&#xfb;" horiz-adv-x="925" d="M106 969h234q-12 -129 -12 -305v-320q0 -180 112 -180q102 0 152 106v400q0 176 -12 299h233q-2 -14 -2 -31q-8 -123 -8 -262v-371q0 -186 22 -305h-196q-20 45 -25 106q-111 -127 -244 -126q-70 0 -128 35.5t-85 93.5q-31 66 -30 219v342q0 96 -2 164q0 45 -9 135z M299 1120l180 293h191l172 -293h-164l-111 180l-110 -180h-158z" />
<glyph unicode="&#xfc;" horiz-adv-x="925" d="M106 969h234q-12 -129 -12 -305v-320q0 -180 112 -180q102 0 152 106v400q0 176 -12 299h233q-2 -14 -2 -31q-8 -123 -8 -262v-371q0 -186 22 -305h-196q-20 45 -25 106q-111 -127 -244 -126q-70 0 -128 35.5t-85 93.5q-31 66 -30 219v342q0 96 -2 164q0 45 -9 135z M168 1266q0 57 35 96t84 39t84 -39t35 -96q0 -55 -35 -94t-84 -39t-84 38.5t-35 94.5zM508 1266q0 57 35 96t86 39q49 0 84 -39t35 -96q0 -55 -35 -94t-84 -39q-51 0 -86 38.5t-35 94.5z" />
<glyph unicode="&#x11e;" horiz-adv-x="1097" d="M68 612q0 309 194 541q205 246 508 246q82 0 178 -23v-301q-74 74 -112 101q-68 45 -140 45q-166 0 -267 -156t-101 -412q0 -209 69 -340q90 -170 281 -170q53 0 86 21v299q0 113 -12 207h264q-12 -100 -12 -207v-385q-141 -113 -353 -113q-256 0 -419.5 181.5 t-163.5 465.5zM391 1812h98q33 -145 162 -145t160 145h100q-2 -133 -72.5 -211.5t-187.5 -78.5t-187.5 78.5t-72.5 211.5z" />
<glyph unicode="&#x11f;" horiz-adv-x="919" d="M61 410q0 238 122 408.5t292 170.5q102 0 203 -92l96 94l55 -47q-33 -164 -32 -346v-315q0 -45 3 -134.5t3 -134.5q0 -211 -98.5 -303t-313.5 -92q-144 0 -291 33l52 231q104 -115 256 -114q115 0 153 81q25 53 25 187q-109 -59 -187 -60q-150 0 -244 121t-94 312z M236 1399h98q33 -145 162 -146q129 0 159 146h101q-2 -133 -73 -212t-187 -79q-117 0 -187.5 79t-72.5 212zM291 479q0 -336 198 -336q46 0 97 31v578q-29 88 -107 88q-90 0 -139 -95.5t-49 -265.5z" />
<glyph unicode="&#x130;" horiz-adv-x="526" d="M131 0l4 39q8 129 8 373v614q0 113 -2 188q0 51 -10 152h264q0 -12 -4 -27q-8 -104 -8 -313v-616q0 -139 2 -226q2 -106 10 -184h-264zM147 1667q0 57 35 96t84 39t84 -39t35 -96q0 -55 -35 -94t-84 -39t-84 39t-35 94z" />
<glyph unicode="&#x131;" horiz-adv-x="456" d="M111 0q2 8 3 20.5t3 75.5q0 18 2 54l2 186l-2 459q-2 125 -8 174h233q0 -10 -4 -25q-2 -37 -4 -156l-2 -555q0 -137 10 -233h-233z" />
<glyph unicode="&#x15e;" horiz-adv-x="950" d="M66 57v293q145 -203 356 -203q106 0 171.5 56.5t65.5 146.5q0 113 -147 203l-274 152q-147 106 -148 264q0 182 142.5 304t355.5 122q113 0 200 -41v-248q-115 113 -270 113q-90 0 -145.5 -44.5t-55.5 -117.5q0 -98 148 -176q244 -127 274 -154q147 -119 148 -317 q0 -186 -126 -306t-333 -131l-37 -79q88 0 144.5 -45.5t56.5 -114.5q0 -74 -53.5 -124t-130.5 -50q-127 0 -236 86l35 67q74 -49 133 -49q92 0 92 76q0 63 -74 63q-18 0 -41 -14l-67 33l80 151q-168 12 -264 84z" />
<glyph unicode="&#x15f;" horiz-adv-x="733" d="M53 33v276q141 -186 297 -186q61 0 99 32.5t38 84.5q0 74 -108 135l-205 110q-109 80 -108 199q0 141 126.5 231.5t323.5 90.5q47 0 84 -5l14 -208q-106 47 -202 47q-141 0 -142 -95q0 -55 109 -110q170 -86 205 -113q109 -86 108 -215q0 -141 -110 -237 q-86 -76 -207 -93l-41 -83q88 -2 144.5 -46.5t56.5 -113.5q0 -74 -53.5 -124t-131.5 -50q-127 0 -235 86l35 67q74 -49 133 -49q92 0 92 76q0 63 -74 63q-18 0 -41 -14l-67 33l81 153q-115 6 -221 58z" />
<glyph unicode="&#x2c6;" d="M242 1120l180 293h190l172 -293h-163l-111 180l-111 -180h-157z" />
<glyph unicode="&#x2da;" d="M336 1264q0 74 51 126t125 52q72 0 123 -51.5t51 -124.5q0 -72 -51 -124t-125 -52q-72 0 -123 51t-51 123zM422 1266q0 -37 26.5 -63.5t63.5 -26.5q35 0 61.5 26.5t26.5 63.5t-25.5 63.5t-64.5 26.5q-37 0 -62.5 -26.5t-25.5 -63.5z" />
<glyph unicode="&#x2dc;" d="M197 1206q68 178 184 178q49 0 132 -46t128 -46t107 97l79 -43q-66 -195 -186 -195q-49 0 -132 47t-124 47q-45 0 -102 -84z" />
<glyph unicode="&#x2000;" horiz-adv-x="906" />
<glyph unicode="&#x2001;" horiz-adv-x="1812" />
<glyph unicode="&#x2002;" horiz-adv-x="906" />
<glyph unicode="&#x2003;" horiz-adv-x="1812" />
<glyph unicode="&#x2004;" horiz-adv-x="604" />
<glyph unicode="&#x2005;" horiz-adv-x="453" />
<glyph unicode="&#x2006;" horiz-adv-x="302" />
<glyph unicode="&#x2007;" horiz-adv-x="302" />
<glyph unicode="&#x2008;" horiz-adv-x="226" />
<glyph unicode="&#x2009;" horiz-adv-x="362" />
<glyph unicode="&#x200a;" horiz-adv-x="100" />
<glyph unicode="&#x2010;" horiz-adv-x="409" d="M0 397v191h410v-191h-410z" />
<glyph unicode="&#x2011;" horiz-adv-x="409" d="M0 397v191h410v-191h-410z" />
<glyph unicode="&#x2012;" horiz-adv-x="409" d="M0 397v191h410v-191h-410z" />
<glyph unicode="&#x2013;" d="M150 397v191h722v-191h-722z" />
<glyph unicode="&#x2014;" horiz-adv-x="1173" d="M0 397v191h1174v-191h-1174z" />
<glyph unicode="&#x2018;" horiz-adv-x="516" d="M123 1026q0 102 71 210t177 163l59 -66q-82 -66 -113.5 -110.5t-42.5 -110.5q119 -23 119 -125q0 -53 -37 -91t-90 -38q-59 0 -101 49t-42 119z" />
<glyph unicode="&#x2019;" horiz-adv-x="516" d="M88 918q82 66 113.5 111.5t40.5 109.5q-119 23 -119 125q0 53 38 91t91 38q59 0 101 -49.5t42 -118.5q0 -102 -72 -210t-176 -163z" />
<glyph unicode="&#x201a;" horiz-adv-x="516" d="M88 -250q82 66 113.5 112t40.5 109q-119 23 -119 125q0 53 38 91t91 38q59 0 101 -49t42 -119q0 -102 -72 -209.5t-176 -162.5z" />
<glyph unicode="&#x201c;" horiz-adv-x="856" d="M123 1026q0 102 71 210t177 163l57 -66q-82 -68 -113.5 -112.5t-40.5 -108.5q119 -23 119 -125q0 -53 -37 -91t-90 -38q-59 0 -101 49t-42 119zM461 1026q0 102 72 210t176 163l59 -66q-82 -66 -113.5 -111.5t-40.5 -109.5q119 -23 119 -125q0 -53 -38 -91t-91 -38 q-59 0 -101 49t-42 119z" />
<glyph unicode="&#x201d;" horiz-adv-x="856" d="M88 918q82 66 113.5 111.5t40.5 109.5q-119 23 -119 125q0 53 38 91t91 38q59 0 101 -49.5t42 -118.5q0 -102 -72 -210t-176 -163zM428 918q82 68 113.5 112.5t40.5 108.5q-119 23 -119 125q0 53 37 91t90 38q59 0 101 -49.5t42 -118.5q0 -102 -71 -210t-177 -163z" />
<glyph unicode="&#x201e;" horiz-adv-x="856" d="M88 -250q82 66 113.5 112t40.5 109q-119 23 -119 125q0 53 38 91t91 38q59 0 101 -49t42 -119q0 -102 -72 -209.5t-176 -162.5zM428 -250q82 66 113.5 112t40.5 109q-119 23 -119 125q0 53 37 91t90 38q59 0 101 -49t42 -119q0 -102 -71 -209.5t-177 -162.5z" />
<glyph unicode="&#x2026;" horiz-adv-x="1536" d="M123 113q0 55 39 93t94 38t94 -38t39 -91q0 -57 -39 -96t-92 -39q-57 0 -96 38.5t-39 94.5zM635 113q0 55 39 93t94 38t94 -38t39 -91q0 -57 -39 -96t-92 -39q-57 0 -96 38.5t-39 94.5zM1147 113q0 55 39 93t94 38t94 -38t39 -91q0 -57 -39 -96t-92 -39q-57 0 -96 38.5 t-39 94.5z" />
<glyph unicode="&#x202f;" horiz-adv-x="362" />
<glyph unicode="&#x2039;" horiz-adv-x="526" d="M131 0l4 39q8 129 8 373v614q0 113 -2 188q0 51 -10 152h264q0 -12 -4 -27q-8 -104 -8 -313v-616q0 -139 2 -226q2 -106 10 -184h-264zM147 1667q0 57 35 96t84 39t84 -39t35 -96q0 -55 -35 -94t-84 -39t-84 39t-35 94z" />
<glyph unicode="&#x203a;" horiz-adv-x="456" d="M111 0q2 8 3 20.5t3 75.5q0 18 2 54l2 186l-2 459q-2 125 -8 174h233q0 -10 -4 -25q-2 -37 -4 -156l-2 -555q0 -137 10 -233h-233z" />
<glyph unicode="&#x205f;" horiz-adv-x="453" />
<glyph unicode="&#x20ac;" horiz-adv-x="919" d="M61 410q0 238 122 408.5t292 170.5q102 0 203 -92l96 94l55 -47q-33 -164 -32 -346v-315q0 -45 3 -134.5t3 -134.5q0 -211 -98.5 -303t-313.5 -92q-144 0 -291 33l52 231q104 -115 256 -114q115 0 153 81q25 53 25 187q-109 -59 -187 -60q-150 0 -244 121t-94 312z M236 1399h98q33 -145 162 -146q129 0 159 146h101q-2 -133 -73 -212t-187 -79q-117 0 -187.5 79t-72.5 212zM291 479q0 -336 198 -336q46 0 97 31v578q-29 88 -107 88q-90 0 -139 -95.5t-49 -265.5z" />
<glyph unicode="&#x2122;" horiz-adv-x="1495" d="M23 1249v117h565v-117q-94 14 -201 15v-467q0 -168 10 -250h-184q6 31 8 63q2 59 2 187v467q-106 0 -200 -15zM694 547q14 88 15 344v272q0 137 -9 203h240l115 -410l94 316q10 31 22 94h236q-10 -68 -10 -203v-434q0 -125 10 -182h-176q2 12 2 24q8 98 8 332v260 l-147 -493h-105l-141 491v-266q0 -29 2 -193q2 -100 8 -155h-164z" />
<glyph unicode="&#x25fc;" horiz-adv-x="972" d="M0 0v973h973v-973h-973z" />
</font>
</defs>
</svg>
